cun4494 4.378 583
Playback -> Nhật -> Instrumental -> JINGO JUNGLE

Chất lượng: 32k 128k 320k m4a
 
Nghe playlist: Xếp hạng:
Playback -> Nhật
Beat Download Nghe riêng bài hát Bukatsu Chuu ni Me ga Au Natte Omottetanda - =LOVE
Beat Download Nghe riêng bài hát Wagamama MIRROR HEART (ワガママMIRROR HEART) - Ohashi Ayaka
Beat Download Nghe riêng bài hát Mae wo Muke(Original Karaoke) - Hey! Say! JUMP
Beat Download Nghe riêng bài hát Digital Native - Yasutaka Nakata
Beat Download Nghe riêng bài hát Level Up - Yasutaka Nakata; banvox
Beat Download Nghe riêng bài hát Wire Frame Baby - Yasutaka Nakata; MAMIKO
Beat Download Nghe riêng bài hát Zankoku na Tenshi no Thesis (off vocal ver.) - Yoko Takahashi
Beat Download Nghe riêng bài hát Eien Shounen (off vocal ver.) - Yui Ogura
Beat Download Nghe riêng bài hát Butai Shoujo Kokoe (舞台少女心得) - Starlight Kukugumi
Beat Download Nghe riêng bài hát Memoria - GFriend
Beat Download Nghe riêng bài hát mark - SuG
Beat Download Nghe riêng bài hát Red Swan (Instrumental) - Yoshiki feat. hyde
Beat Download Nghe riêng bài hát Time For The Moon Night (Japanese Version) - GFriend
Beat Download Nghe riêng bài hát Hitorigoto (ヒトリゴト) - ClariS
Beat Download Nghe riêng bài hát Innocence - Evan Call
Beat Download Nghe riêng bài hát Doki Doki Literature Club! - Dan Salvato
Beat Download Nghe riêng bài hát VORACITY - MYTH; ROID
Beat Download Nghe riêng bài hát Kawaru no Ka, Kawaranai no Ka - Nijine
Beat Download Nghe riêng bài hát Midnight Train feat. Emi Meyer - DJ Okawari
Beat Download Nghe riêng bài hát Ii Suta (良すた) - Kyary Pamyu Pamyu
Beat Download Nghe riêng bài hát My Confession - Dan Salvato
Beat Download Nghe riêng bài hát Doki Doki - Dan Salvato; Nick Kaelar
Beat Download Nghe riêng bài hát Tokyo Winter Session - HoneyWorks feat. Yu Setoguchi, Natsuki Enomoto, Sota Mochizuki, Akari Hayasaka, Haruki Serizawa, Miou Aida
Beat Download Nghe riêng bài hát Hajimari no Uta - XAI
Beat Download Nghe riêng bài hát Youkoso Jitsuryoku Shijou Shugi no Kyoushitsu e (ようこそ実力至上主義の教室へ) - Ryo Takahashi

JINGO JUNGLE - MYTH & ROID

PlaylistDownloads
Chia sẻ bài hátChia sẻ trên facebook
Link bài hát:
Nhúng blog:
Nhúng iframe:
Nhúng forum:
Warning Ghi chú: Beat, playback JINGO JUNGLE do ca sĩ MYTH & ROID trình bày mà bạn đang nghe là ở chất lượng âm thanh 32kbps. Chất lượng âm thanh cao nhất mà bạn có thể tải là Lossless. Bạn được phép nghe nhạc mp3 JINGO JUNGLE, tải nhạc JINGO JUNGLE về máy và xem lời bài hát JINGO JUNGLE hoàn toàn miễn phí.
JINGO JUNGLE
Trình bày: MYTH & ROID
Sáng tác: MYTH & ROID
Album: MYTH & ROID - JINGO JUNGLE (Youjo Senki OP Single) Listen Album
Sản xuất: KADOKAWA ZMCZ-10928 (2017)

TRACK 01 AUDIO
TITLE "JINGO JUNGLE"
PERFORMER "MYTH & ROID"
INDEX 01 00:00:00
TRACK 02 AUDIO
TITLE "Frozen Rain"
PERFORMER "MYTH & ROID"
INDEX 01 03:50:64
TRACK 03 AUDIO
TITLE "JINGO JUNGLE [Instrumental]"
PERFORMER "MYTH & ROID"
JINGO JUNGLE lyrics on fulldrama.com
INDEX 01 07:41:03
TRACK 04 AUDIO
TITLE "Frozen Rain [Instrumental]"
PERFORMER "MYTH & ROID"
INDEX 01 11:31:18

JINGO JUNGLE - MYTH & ROID
Cùng ca sĩ
Beat
VORACITY

MYTH; ROID

Beat
Something w/o Sunrise

MYTH; ROID

3
VORACITY

MYTH; ROID

4
Styx Helix

Myth; Roid

5
Styx Helix

Myth; Roid

6
Something w/o Sunrise

MYTH; ROID

Bài hát liên quan
1
JINGO JUNGLE

MYTH & ROID

JINGO JUNGLE - Myth & Roid
JINGO JUNGLE

Myth & Roid

3
Jingo Jungle (HBB Remix)

Myth & Roid

4
HYDRA

MYTH & ROID

5
Voracity

Myth & Roid

6
STYX HELIX

MYTH & ROID

7
Paradisus-Paradoxum

MYTH & ROID

8
Tragedy:Eternity

Myth & Roid

9
Tough & Alone

Myth & Roid

10
STYX HELIX

Myth & Roid

Cùng thể loại
Beat
Beat
Beat
Mae wo Muke(Original Karaoke)

Hey! Say! JUMP

Beat
Digital Native

Yasutaka Nakata

Beat
Level Up

Yasutaka Nakata; banvox

Beat
Wire Frame Baby

Yasutaka Nakata; MAMIKO

Beat
Zankoku na Tenshi no Thesis (off vocal ver.)

Yoko Takahashi

Beat
Eien Shounen (off vocal ver.)

Yui Ogura

Beat
Butai Shoujo Kokoe (舞台少女心得)

Starlight Kukugumi

Beat
Memoria

GFriend

Album đang được quan tâm
Relaxing Guitar Heaven
Năm: 2018
Önder Bilge
Lossless
Celeste - Madeline's Grab Bag
Năm: 2018
Lena Raine; Kevin Regamey
Lossless
Cảm nhận: JINGO JUNGLE
Bài hát vừa nghe

My playlist (0)

Like CSN trên Facebook